.


    Blood Out 2011 DVDRIP XViD 1.39GB

    Share
    avatar
    Admin
    Admin
    Admin

    Male Pisces

    Posts : 148
    Join date : 2009-12-20
    Age : 24
    Location : Pakistan

    Multi Blood Out 2011 DVDRIP XViD 1.39GB

    Post by Admin on Sat Apr 16, 2011 12:49 pm




    ********************************************************************************************************************
    Blood Out 2011 DVDRIP XViD - IMAGiNE
    ********************************************************************************************************************

    Ripper ...........:IMAGiNE IMDB Rating.......:n/a
    Video Codec.......:XVID Release Date......:14/04/11
    Audio Codec.......:AC-3 Theatre Date......:26/04/11
    Audio Bitrate.....:448 Runtime...........:1h 25mn
    Subtitles.........:NIL Language..........:ENGLISH
    Resolution........:720 x 304 IMDb URL..........:http://www.imdb.com/title/tt1477675/


    DETAILS:

    Video
    ID : 0
    Format : MPEG-4 Visual
    Format profile : Advanced Simple@L5
    Format settings, BVOP : Yes
    Format settings, QPel : No
    Format settings, GMC : No warppoints
    Format settings, Matrix : Default (MPEG)
    Muxing mode : Packed bitstream
    Codec ID : XVID
    Codec ID/Hint : XviD
    Duration : 1h 25mn
    Bit rate : 1 848 Kbps
    Width : 720 pixels
    Height : 304 pixels
    Display aspect ratio : 2.35:1
    Frame rate : 25.000 fps
    Color space : YUV
    Chroma subsampling : 4:2:0
    Bit depth : 8 bits
    Scan type : Progressive
    Compression mode : Lossy
    Bits/(Pixel*Frame) : 0.338
    Stream size : 1.10 GiB (80%)
    Writing library : XviD 61

    Audio
    ID : 1
    Format : AC-3
    Format/Info : Audio Coding 3
    Mode extension : CM (complete main)
    Codec ID : 2000
    Duration : 1h 25mn
    Bit rate mode : Constant
    Bit rate : 448 Kbps
    Channel(s) : 6 channels
    Channel positions : Front: L C R, Side: L R, LFE
    Sampling rate : 48.0 KHz
    Bit depth : 16 bits
    Compression mode : Lossy
    Stream size : 272 MiB (19%)
    Alignment : Aligned on interleaves
    Interleave, duration : 40 ms (1.00 video frame)








    PARTS
    Code:
    http://hotfile.com/dl/114504725/0bf314d/Blood20Out20201120DVDRIP20XViD20-20PRiVYHACKER.part1.rar.html
    http://hotfile.com/dl/114504920/d580b23/Blood20Out20201120DVDRIP20XViD20-20PRiVYHACKER.part2.rar.html
    http://hotfile.com/dl/114507527/6b6b829/Blood20Out20201120DVDRIP20XViD20-20PRiVYHACKER.part3.rar.html
    http://hotfile.com/dl/114507736/5995801/Blood20Out20201120DVDRIP20XViD20-20PRiVYHACKER.part4.rar.html

    Code:
    http://oron.com/denw3lwrmcae/Blood_Out_2011_DVDRIP_XViD_-_PRiVYHACKER.part1.rar.html
    http://oron.com/gc52sfrqb8ke/Blood_Out_2011_DVDRIP_XViD_-_PRiVYHACKER.part2.rar.html
    http://oron.com/i3dg04csccjo/Blood_Out_2011_DVDRIP_XViD_-_PRiVYHACKER.part3.rar.html
    http://oron.com/ueb4h7tqczsa/Blood_Out_2011_DVDRIP_XViD_-_PRiVYHACKER.part4.rar.html


    SINGLE LINKS

    Code:
    http://www.fileserve.com/file/zwNdHJm

    Code:
    http://www.duckload.com/dl/d6Be2

    Code:
    http://www.filesonic.com/file/670446911/Blood Out 2011 DVDRIP XViD - PRiVYHACKER.avi.rar

    Code:
    http://www.uploadstation.com/file/dxB6b72


    If You Like My Thread & Support My Work


    ~~~~~~~~~~~~~~~~~~~~~~~~~~~~~~~~~~~~~~~~~~~~~~~~~~~~~~~~~~~~~~~~~~~~~~~~~~~~~~~~~~~~~~~


      Current date/time is Wed Dec 13, 2017 1:41 pm