.


    Underworld 4 Awakening 2012 CAM V2 XviD - ZOMBiES

    Share
    avatar
    Admin
    Admin
    Admin

    Male Pisces

    Posts : 148
    Join date : 2009-12-20
    Age : 24
    Location : Pakistan

    Multi Underworld 4 Awakening 2012 CAM V2 XviD - ZOMBiES

    Post by Admin on Sun Jan 29, 2012 9:55 am






    Another Fine Release Brought to you from - ZOMBiES


    ******************************************************************************************
    Underworld 4 Awakening 2012 CAM V2 XviD - ZOMBiES
    ******************************************************************************************


    Release Name : Underworld 4 Awakening 2012 CAM V2 XviD - ZOMBiES
    Rating : N/A/10
    Genre : Action, Fantasy, Horror
    Stars : Kate Beckinsale, Michael Ealy, India Eisley, Charles Dance
    Director : Måns Mårlind, Björn Stein
    Writers : Len Wiseman, John Hlavin
    Release Date : 20 Jan 2012
    Movie Runtime : N/A
    Rated Under : N/A
    Movie Plot : When human forces discover the existence of the Vampire and Lycan clans, a war to eradicate both species commences. The vampire warrioress Selene leads the battle against humankind.

    http://imdb.com/title/tt1496025/


    Format : AVI
    Format/Info : Audio Video Interleave
    File size : 619 MiB
    Duration : 1h 16mn
    Overall bit rate : 1 136 Kbps
    Writing application : VirtualDubMod 1.5.10.2 (build 2540/release)
    Writing library : VirtualDub build 32842/release

    Video
    ID : 0
    Format : MPEG-4 Visual
    Format profile : Advanced Simple@L5
    Format settings, BVOP : 2
    Format settings, QPel : No
    Format settings, GMC : No warppoints
    Format settings, Matrix : Default (H.263)
    Muxing mode : Packed bitstream
    Codec ID : XVID
    Codec ID/Hint : XviD
    Duration : 1h 16mn
    Bit rate : 998 Kbps
    Width : 720 pixels
    Height : 344 pixels
    Display aspect ratio : 2.093
    Frame rate : 25.000 fps
    Color space : YUV
    Chroma subsampling : 4:2:0
    Bit depth : 8 bits
    Scan type : Progressive
    Compression mode : Lossy
    Bits/(Pixel*Frame) : 0.161
    Stream size : 544 MiB (88%)
    Writing library : XviD 64

    Audio
    ID : 1
    Format : MPEG Audio
    Format version : Version 1
    Format profile : Layer 3
    Codec ID : 55
    Codec ID/Hint : MP3
    Duration : 1h 16mn
    Bit rate mode : Constant
    Bit rate : 128 Kbps
    Channel(s) : 2 channels
    Sampling rate : 48.0 KHz
    Compression mode : Lossy
    Stream size : 69.7 MiB (11%)
    Alignment : Aligned on interleaves
    Interleave, duration : 40 ms (1.00 video frame)
    Interleave, preload duration : 504 ms









    rapidshare.com U4A2012_camV2_PH.avi

    http://www.crocko.com/58C3952E9A0B4885A5661B1367E51DC4/U4A2012_camV2_PH.avi

    turbobit.net xp4h4s1grykx U4A2012_camV2_PH.avi.html


    ~~~~~~~~~~~~~~~~~~~~~~~~~~~~~~~~~~~~~~~~~~~~~~~~~~~~~~~~~~~~~~~~~~~~~~~~~~~~~~~~~~~~~~~


      Current date/time is Wed Dec 13, 2017 8:11 am